<?xml version="1.0" standalone="no"?>
<!DOCTYPE svg PUBLIC "-//W3C//DTD SVG 1.1//EN" "http://www.w3.org/Graphics/SVG/1.1/DTD/svg11.dtd" >
<svg xmlns="http://www.w3.org/2000/svg">
<metadata>Generated by IcoMoon</metadata>
<defs>
<font id="dlpro" horiz-adv-x="1024">
<font-face units-per-em="1024" ascent="960" descent="-64" />
<missing-glyph horiz-adv-x="1024" />
<glyph unicode="&#x20;" horiz-adv-x="512" d="" />
<glyph unicode="&#xe900;" d="M0-55.808l1024 615.424v-17.408l-1009.664-606.208h-14.336z" />
<glyph unicode="&#xe901;" d="M0 353.792l1009.664 606.208h14.336v-8.192l-1024-615.424z" />
<glyph unicode="&#xe902;" d="M46.080-10.752l931.84 560.128v-17.408l-915.456-549.888h-16.384z" />
<glyph unicode="&#xe903;" d="M46.080 364.032l915.456 549.888h16.384v-7.168l-931.84-560.128z" />
<glyph unicode="&#xe904;" d="M29.696 731.648h957.44v-46.080h-957.44v46.080z" />
<glyph unicode="&#xe905;" d="M128 865.792h63.488v-63.488h-63.488v63.488z" />
<glyph unicode="&#xe906;" d="M128 801.28l63.488 38.912v-1.024l-62.464-37.888h-1.024z" />
<glyph unicode="&#xe907;" d="M253.952 865.792h63.488v-63.488h-63.488v63.488z" />
<glyph unicode="&#xe908;" d="M253.952 801.28l64.512 38.912v-1.024l-62.464-37.888h-2.048z" />
<glyph unicode="&#xe909;" d="M874.496 810.496h-467.968c-12.288 0-23.552 10.24-23.552 23.552s10.24 23.552 23.552 23.552h468.992c12.288 0 23.552-10.24 23.552-23.552s-11.264-23.552-24.576-23.552z" />
<glyph unicode="&#xe90a;" d="M352.256-55.808c-12.288 0-23.552 10.24-23.552 23.552v727.040c0 12.288 10.24 23.552 23.552 23.552 12.288 0 23.552-10.24 23.552-23.552v-728.064c-1.024-12.288-11.264-22.528-23.552-22.528z" />
<glyph unicode="&#xe90b;" d="M671.744-55.808c-12.288 0-23.552 10.24-23.552 23.552v727.040c0 12.288 10.24 23.552 23.552 23.552s23.552-10.24 23.552-23.552v-728.064c0-12.288-10.24-22.528-23.552-22.528z" />
<glyph unicode="&#xe90c;" glyph-name="css-effect" d="M268.288 174.592c-3.072 0-6.144 0-9.216 1.024-39.936 5.12-71.68 40.96-73.728 81.92-1.024 13.312-1.024 27.648 0 40.96 0 6.144 0 12.288 0 18.432v14.336c0 11.264 0 22.528 0 32.768 1.024 22.528-2.048 46.080-36.864 49.152-13.312 1.024-22.528 11.264-22.528 25.6 0 15.36 8.192 25.6 24.576 27.648 31.744 4.096 35.84 25.6 34.816 47.104-1.024 32.768-1.024 70.656 0 107.52 1.024 41.984 31.744 76.8 71.68 82.944 4.096 1.024 8.192 1.024 12.288 1.024 16.384 0 25.6-7.168 28.672-22.528 2.048-8.192 1.024-15.36-3.072-20.48-4.096-6.144-12.288-10.24-23.552-12.288-22.528-3.072-33.792-17.408-31.744-41.984 0-6.144 0-12.288 0-18.432-1.024-14.336 0-28.672 0-43.008 1.024-35.84 2.048-73.728-19.456-107.52l-1.024-1.024 1.024-1.024c22.528-32.768 20.48-67.584 19.456-104.448-1.024-15.36-1.024-30.72 0-46.080 0-5.12 0-9.216 0-14.336-2.048-26.624 9.216-40.96 33.792-44.032 10.24-1.024 17.408-5.12 22.528-11.264 4.096-6.144 5.12-13.312 3.072-21.504-5.12-14.336-15.36-20.48-30.72-20.48zM809.984 174.592c-11.264 0-24.576 4.096-28.672 21.504-2.048 8.192-1.024 16.384 3.072 21.504 4.096 6.144 10.24 9.216 18.432 10.24 30.72 4.096 34.816 22.528 36.864 49.152 1.024 16.384 0 32.768-1.024 49.152-2.048 36.864-4.096 74.752 19.456 109.568 2.048 3.072 1.024 7.168 0 10.24-23.552 33.792-21.504 72.704-18.432 109.568 1.024 16.384 2.048 32.768 1.024 49.152-2.048 25.6-5.12 45.056-36.864 49.152-8.192 1.024-14.336 5.12-18.432 10.24-4.096 6.144-5.12 13.312-3.072 21.504 3.072 14.336 13.312 21.504 29.696 21.504 2.048 0 3.072 0 5.12 0 41.984-3.072 76.8-40.96 77.824-84.992 1.024-37.888 1.024-76.8 0-111.616 0-25.6 10.24-38.912 32.768-41.984 12.288-1.024 25.6-7.168 26.624-25.6 1.024-16.384-8.192-26.624-27.648-28.672-22.528-3.072-31.744-16.384-31.744-41.984 1.024-36.864 1.024-74.752 0-111.616-2.048-45.056-39.936-84.992-80.896-84.992l-4.096-1.024zM565.248 380.416c-3.072-18.432-13.312-29.696-32.768-27.648-16.384 2.048-27.648 13.312-26.624 30.72 1.024 19.456 13.312 29.696 31.744 28.672 18.432-3.072 26.624-14.336 27.648-31.744zM694.272 380.416c-3.072-18.432-13.312-29.696-32.768-27.648-16.384 2.048-27.648 13.312-26.624 30.72 1.024 19.456 13.312 29.696 31.744 28.672 17.408-3.072 26.624-14.336 27.648-31.744zM434.176 378.368c-3.072-18.432-13.312-29.696-32.768-27.648-16.384 2.048-27.648 13.312-26.624 30.72 1.024 19.456 13.312 29.696 31.744 28.672 17.408-2.048 25.6-13.312 27.648-31.744zM155.648 62.976c-23.552 0-41.984 19.456-41.984 41.984 0 23.552 19.456 41.984 41.984 41.984s41.984-19.456 41.984-41.984c1.024-22.528-18.432-41.984-41.984-41.984zM155.648 125.44c-10.24 0-19.456-8.192-19.456-19.456 0-10.24 8.192-19.456 19.456-19.456s19.456 8.192 19.456 19.456c0 10.24-9.216 19.456-19.456 19.456zM934.912 735.744c-26.624 0-48.128 21.504-48.128 48.128s21.504 48.128 48.128 48.128 48.128-21.504 48.128-48.128c0-26.624-21.504-48.128-48.128-48.128zM934.912 810.496c-14.336 0-25.6-11.264-25.6-25.6s11.264-25.6 25.6-25.6c14.336 0 25.6 11.264 25.6 25.6s-11.264 25.6-25.6 25.6zM678.912 804.352c0-7.918-6.418-14.336-14.336-14.336s-14.336 6.418-14.336 14.336c0 7.918 6.418 14.336 14.336 14.336s14.336-6.418 14.336-14.336zM1024 556.544c0-8.483-6.877-15.36-15.36-15.36s-15.36 6.877-15.36 15.36c0 8.483 6.877 15.36 15.36 15.36s15.36-6.877 15.36-15.36zM953.344 286.208c0-6.221-5.043-11.264-11.264-11.264s-11.264 5.043-11.264 11.264c0 6.221 5.043 11.264 11.264 11.264s11.264-5.043 11.264-11.264zM418.816 94.72c0-7.918-6.418-14.336-14.336-14.336s-14.336 6.418-14.336 14.336c0 7.918 6.418 14.336 14.336 14.336s14.336-6.418 14.336-14.336zM26.624 439.808c0-7.352-5.96-13.312-13.312-13.312s-13.312 5.96-13.312 13.312c0 7.352 5.96 13.312 13.312 13.312s13.312-5.96 13.312-13.312zM148.48 706.048c0-13.007-10.545-23.552-23.552-23.552s-23.552 10.545-23.552 23.552c0 13.007 10.545 23.552 23.552 23.552s23.552-10.545 23.552-23.552z" />
<glyph unicode="&#xe90d;" glyph-name="css-transformation" d="M317.44 256.512c-2.048 0-4.096 0-6.144 0-28.672 4.096-51.2 29.696-53.248 58.368-1.024 9.216 0 19.456 0 29.696 0 4.096 0 9.216 0 13.312v11.264c0 8.192 0 16.384 0 23.552 1.024 16.384-2.048 32.768-25.6 35.84-10.24 1.024-16.384 8.192-16.384 18.432 0 11.264 6.144 18.432 17.408 20.48 22.528 3.072 25.6 18.432 25.6 33.792 0 23.552-1.024 50.176 0 77.824 1.024 29.696 22.528 55.296 51.2 60.416 3.072 0 6.144 1.024 8.192 1.024 11.264 0 18.432-5.12 20.48-16.384 1.024-6.144 0-11.264-2.048-14.336-3.072-4.096-9.216-7.168-16.384-8.192-16.384-2.048-23.552-12.288-22.528-29.696 0-4.096 0-9.216 0-13.312-1.024-10.24 0-20.48 0-30.72 1.024-25.6 2.048-53.248-14.336-76.8l-1.024-1.024 1.024-1.024c16.384-23.552 15.36-49.152 14.336-75.776 0-11.264-1.024-21.504 0-32.768 0-3.072 0-7.168 0-10.24-1.024-19.456 6.144-29.696 23.552-31.744 7.168-1.024 13.312-4.096 15.36-8.192 3.072-4.096 3.072-9.216 2.048-15.36-3.072-13.312-10.24-18.432-21.504-18.432zM706.56 256.512c-8.192 0-17.408 3.072-20.48 15.36-1.024 6.144 0 11.264 2.048 15.36 3.072 4.096 7.168 6.144 13.312 7.168 22.528 3.072 24.576 16.384 26.624 35.84 1.024 11.264 0 23.552-1.024 34.816-2.048 26.624-3.072 54.272 13.312 78.848 1.024 2.048 1.024 5.12 0 7.168-16.384 24.576-15.36 52.224-13.312 78.848 1.024 11.264 1.024 23.552 1.024 34.816-1.024 18.432-4.096 32.768-26.624 34.816-6.144 1.024-10.24 3.072-13.312 7.168s-4.096 9.216-2.048 15.36c2.048 10.24 9.216 15.36 21.504 15.36 1.024 0 2.048 0 3.072 0 30.72-2.048 55.296-29.696 56.32-61.44 1.024-27.648 0-55.296 0-79.872 0-18.432 7.168-27.648 23.552-29.696 8.192-1.024 18.432-5.12 19.456-18.432 0-12.288-6.144-18.432-19.456-20.48-15.36-2.048-23.552-11.264-22.528-30.72 0-26.624 1.024-53.248 0-79.872-1.024-32.768-28.672-61.44-58.368-61.44l-3.072 1.024zM530.432 404.992c-2.048-13.312-10.24-21.504-23.552-20.48-12.288 1.024-19.456 9.216-19.456 21.504 1.024 13.312 9.216 21.504 23.552 20.48 12.288 0 19.456-9.216 19.456-21.504zM623.616 404.992c-2.048-13.312-10.24-21.504-23.552-20.48-12.288 1.024-19.456 9.216-19.456 21.504 1.024 13.312 9.216 21.504 23.552 20.48 11.264 0 18.432-9.216 19.456-21.504zM436.224 403.968c-2.048-13.312-10.24-21.504-23.552-20.48-12.288 1.024-19.456 9.216-19.456 21.504 1.024 13.312 9.216 21.504 23.552 20.48 12.288 0 18.432-9.216 19.456-21.504zM924.672 183.808v528.384c56.32 12.288 99.328 62.464 99.328 122.88 0 68.608-56.32 124.928-124.928 124.928-57.344 0-105.472-38.912-119.808-91.136h-531.456c-15.36 52.224-63.488 91.136-120.832 91.136-68.608 0-124.928-56.32-124.928-125.952 0-56.32 37.888-104.448 90.112-119.808v-531.456c-53.248-14.336-92.16-63.488-92.16-120.832 0-69.632 56.32-125.952 124.928-125.952 59.392 0 109.568 41.984 121.856 97.28h530.432c12.288-56.32 62.464-97.28 121.856-97.28 68.608 0 124.928 56.32 124.928 125.952 0 59.392-43.008 110.592-99.328 121.856zM899.072 921.088c48.128 0 87.040-38.912 87.040-87.040s-38.912-87.040-87.040-87.040-87.040 38.912-87.040 87.040c0 48.128 38.912 87.040 87.040 87.040zM40.96 834.048c0 48.128 38.912 87.040 87.040 87.040s87.040-38.912 87.040-87.040c0-48.128-38.912-87.040-87.040-87.040s-87.040 39.936-87.040 87.040zM124.928-25.088c-48.128 0-87.040 38.912-87.040 87.040s38.912 87.040 87.040 87.040 87.040-38.912 87.040-87.040c0-48.128-38.912-87.040-87.040-87.040zM774.144 72.192h-524.288c-5.12 62.464-56.32 111.616-118.784 114.688v522.24c65.536 2.048 118.784 55.296 120.832 121.856h522.24c2.048-63.488 50.176-114.688 112.64-120.832v-523.264c-59.392-6.144-107.52-54.272-112.64-114.688zM899.072-25.088c-48.128 0-87.040 38.912-87.040 87.040s38.912 87.040 87.040 87.040 87.040-38.912 87.040-87.040c0-48.128-38.912-87.040-87.040-87.040z" />
<glyph unicode="&#xe90e;" glyph-name="custom-column" d="M207.872 911.872v-928.768h-159.744v928.768h159.744zM230.4 960h-204.8c-14.336 0-25.6-11.264-25.6-25.6v-972.8c0-14.336 11.264-25.6 25.6-25.6h204.8c14.336 0 25.6 11.264 25.6 25.6v972.8c0 14.336-11.264 25.6-25.6 25.6v0zM591.872 911.872v-928.768h-159.744v928.768h159.744zM614.4 960h-204.8c-14.336 0-25.6-11.264-25.6-25.6v-972.8c0-14.336 11.264-25.6 25.6-25.6h204.8c14.336 0 25.6 11.264 25.6 25.6v972.8c0 14.336-11.264 25.6-25.6 25.6v0zM975.872 911.872v-928.768h-159.744v928.768h159.744zM998.4 960h-204.8c-14.336 0-25.6-11.264-25.6-25.6v-972.8c0-14.336 11.264-25.6 25.6-25.6h204.8c14.336 0 25.6 11.264 25.6 25.6v972.8c0 14.336-11.264 25.6-25.6 25.6v0z" />
<glyph unicode="&#xe90f;" glyph-name="custom-css" d="M181.248 241.152c-12.288 2.048-17.408 9.216-16.384 22.528 0 2.048 0 5.12 0 7.168-1.024 7.168 0 15.36 0 22.528 1.024 18.432 1.024 35.84-9.216 52.224v2.048c11.264 16.384 10.24 35.84 10.24 53.248 0 7.168 0 14.336 0 21.504 0 3.072 0 6.144 0 9.216-1.024 12.288 4.096 19.456 16.384 20.48 5.12 1.024 9.216 3.072 11.264 6.144s2.048 6.144 2.048 10.24c-2.048 7.168-6.144 11.264-14.336 11.264-2.048 0-4.096 0-6.144-1.024-20.48-3.072-34.816-20.48-35.84-41.984-1.024-18.432 0-37.888 0-53.248 0-10.24-2.048-21.504-17.408-23.552-8.192-1.024-12.288-6.144-12.288-14.336 0-7.168 4.096-12.288 11.264-12.288 17.408-2.048 18.432-13.312 18.432-24.576 0-5.12 0-11.264 0-16.384v-7.168c0-3.072 0-6.144 0-9.216 0-7.168 0-13.312 0-20.48 1.024-20.48 17.408-37.888 36.864-40.96 2.048 0 3.072 0 5.12 0 8.192 0 12.288 3.072 14.336 10.24 1.024 4.096 1.024 8.192-1.024 11.264-4.096 3.072-8.192 4.096-13.312 5.12zM507.904 360.96c-11.264 1.024-16.384 8.192-16.384 20.48 0 17.408 1.024 36.864 0 55.296-1.024 22.528-17.408 40.96-38.912 43.008-1.024 0-2.048 0-2.048 0-8.192 0-13.312-3.072-15.36-10.24-1.024-4.096-1.024-8.192 1.024-11.264s5.12-5.12 9.216-5.12c15.36-2.048 17.408-12.288 18.432-24.576 1.024-8.192 0-16.384 0-24.576-1.024-18.432-2.048-37.888 9.216-54.272 1.024-1.024 1.024-4.096 0-5.12-12.288-17.408-10.24-35.84-9.216-54.272 0-8.192 1.024-16.384 0-24.576-1.024-13.312-3.072-22.528-18.432-24.576-4.096-1.024-7.168-2.048-9.216-5.12s-3.072-6.144-2.048-11.264c2.048-9.216 9.216-11.264 14.336-11.264h1.024c20.48 0 39.936 19.456 40.96 41.984 1.024 18.432 0 36.864 0 55.296 0 13.312 5.12 19.456 15.36 20.48 9.216 1.024 14.336 6.144 13.312 14.336 2.048 11.264-5.12 14.336-11.264 15.36zM314.368 332.288c-9.216 1.024-15.36-5.12-16.384-14.336 0-8.192 5.12-14.336 13.312-15.36 9.216-1.024 14.336 5.12 16.384 14.336 0 9.216-5.12 14.336-13.312 15.36zM378.88 332.288c-9.216 1.024-15.36-5.12-16.384-14.336 0-8.192 5.12-14.336 13.312-15.36 9.216-1.024 14.336 5.12 16.384 14.336-1.024 9.216-5.12 14.336-13.312 15.36zM248.832 331.264c-9.216 1.024-15.36-5.12-16.384-14.336 0-8.192 5.12-14.336 13.312-15.36 9.216-1.024 14.336 5.12 16.384 14.336-1.024 9.216-5.12 15.36-13.312 15.36zM778.24 664.064c12.288 0 21.504 9.216 21.504 21.504s-9.216 21.504-21.504 21.504v0c-12.288 0-21.504-9.216-21.504-21.504s9.216-21.504 21.504-21.504zM885.76 664.064c12.288 0 21.504 9.216 21.504 21.504s-9.216 21.504-21.504 21.504v0c-12.288 0-21.504-9.216-21.504-21.504s10.24-21.504 21.504-21.504zM669.696 664.064c12.288 0 21.504 9.216 21.504 21.504s-9.216 21.504-21.504 21.504v0c-12.288 0-21.504-9.216-21.504-21.504s10.24-21.504 21.504-21.504zM142.336 664.064h301.056c12.288 0 21.504 9.216 21.504 21.504s-9.216 21.504-21.504 21.504h-301.056c-12.288 0-21.504-9.216-21.504-21.504s10.24-21.504 21.504-21.504zM592.896 379.392h37.888c12.288 0 21.504 9.216 21.504 21.504s-9.216 21.504-21.504 21.504h-37.888c-12.288 0-21.504-9.216-21.504-21.504s9.216-21.504 21.504-21.504zM902.144 422.4h-179.2c-12.288 0-21.504-9.216-21.504-21.504s9.216-21.504 21.504-21.504h179.2c12.288 0 21.504 9.216 21.504 21.504 0 11.264-9.216 21.504-21.504 21.504zM772.096 304.64h-179.2c-12.288 0-21.504-9.216-21.504-21.504s9.216-21.504 21.504-21.504h179.2c12.288 0 21.504 9.216 21.504 21.504s-10.24 21.504-21.504 21.504zM902.144 304.64h-37.888c-12.288 0-21.504-9.216-21.504-21.504s9.216-21.504 21.504-21.504h37.888c12.288 0 21.504 9.216 21.504 21.504s-9.216 21.504-21.504 21.504zM956.416 812.544h-888.832c-36.864 0-67.584-30.72-67.584-67.584v-593.92c0-36.864 30.72-67.584 67.584-67.584h888.832c36.864 0 67.584 30.72 67.584 67.584v593.92c0 36.864-30.72 67.584-67.584 67.584zM67.584 774.656h888.832c16.384 0 30.72-13.312 30.72-30.72v-142.336h-949.248v143.36c0 16.384 13.312 29.696 29.696 29.696zM956.416 121.344h-888.832c-16.384 0-30.72 13.312-30.72 30.72v413.696h949.248v-414.72c0-16.384-13.312-29.696-29.696-29.696z" />
<glyph unicode="&#xe910;" glyph-name="droit-copy" d="M50.176-64c-18.432 0-23.552 6.144-25.6 8.192-4.096 4.096-9.216 10.24-9.216 25.6v722.944c0 15.36 4.096 21.504 8.192 25.6 6.144 6.144 14.336 8.192 25.6 8.192h234.496c8.192 0 15.36 0 21.504-1.024h2.048c44.032-1.024 82.944-6.144 116.736-15.36 62.464-16.384 115.712-45.056 156.672-86.016 69.632-68.608 104.448-166.912 104.448-292.864 0-27.648-1.024-50.176-4.096-70.656-4.096-36.864-12.288-72.704-24.576-105.472-17.408-45.056-41.984-84.992-75.776-117.76-66.56-66.56-166.912-101.376-295.936-101.376h-234.496zM86.016-13.824h191.488c142.336 0 240.64 48.128 292.864 143.36 18.432 31.744 30.72 69.632 37.888 111.616 5.12 27.648 7.168 58.368 7.168 91.136 0 160.768-57.344 266.24-171.008 314.368-37.888 16.384-82.944 26.624-132.096 28.672-10.24 1.024-22.528 1.024-33.792 1.024h-192.512v-690.176zM370.688 168.448c-15.36 0-22.528 4.096-25.6 8.192-4.096 4.096-8.192 10.24-8.192 24.576v524.288c25.6-2.048 49.152-5.12 70.656-10.24v-495.616h191.488c28.672 0 55.296 2.048 79.872 6.144-3.072-18.432-8.192-35.84-14.336-54.272-17.408-2.048-35.84-2.048-58.368-2.048h-235.52zM722.944 176.64c5.12 21.504 8.192 44.032 10.24 67.584 93.184 53.248 208.896 94.208 202.752 320.512-6.144 225.28-116.736 345.088-337.92 345.088h-190.464v-147.456c-22.528 4.096-46.080 7.168-70.656 8.192v155.648c0 15.36 4.096 21.504 8.192 25.6s10.24 8.192 25.6 8.192h234.496c128 0 228.352-34.816 299.008-102.4 69.632-67.584 104.448-165.888 104.448-292.864 0-128-33.792-224.256-104.448-292.864-32.768-32.768-115.712-84.992-181.248-95.232z" />
<glyph unicode="&#xe911;" glyph-name="icon" d="M962.56 878.080h-901.12c-33.792 0-61.44-27.648-61.44-61.44v-206.848c0-12.288 10.24-22.528 22.528-22.528v0c12.288 0 22.528 10.24 22.528 22.528v206.848c0 8.192 6.144 15.36 15.36 15.36h901.12c8.192 0 15.36-7.168 15.36-15.36v-737.28c0-8.192-7.168-15.36-15.36-15.36h-900.096c-8.192 0-15.36 7.168-15.36 15.36v387.072c0 12.288-10.24 22.528-22.528 22.528v0c-13.312 0-23.552-10.24-23.552-22.528v-387.072c0-33.792 27.648-61.44 61.44-61.44h901.12c33.792 0 61.44 27.648 61.44 61.44v737.28c0 33.792-27.648 61.44-61.44 61.44zM713.728 364.032c-30.72 30.72-68.608 54.272-108.544 67.584 51.2 34.816 81.92 98.304 68.608 167.936-12.288 65.536-64.512 117.76-129.024 131.072-105.472 20.48-198.656-60.416-198.656-161.792 0-56.32 28.672-106.496 71.68-136.192-39.936-14.336-77.824-36.864-108.544-67.584-48.128-48.128-76.8-110.592-82.944-177.152-1.024-13.312 9.216-24.576 22.528-24.576v0c11.264 0 21.504 8.192 22.528 20.48 10.24 123.904 113.664 221.184 240.64 221.184s230.4-97.28 240.64-221.184c1.024-11.264 10.24-20.48 22.528-20.48v0c13.312 0 23.552 11.264 22.528 24.576-7.168 65.536-35.84 128-83.968 176.128zM512 448c-66.56 0-120.832 54.272-120.832 120.832s54.272 119.808 120.832 119.808 120.832-54.272 120.832-120.832-54.272-119.808-120.832-119.808z" />
<glyph unicode="&#xe912;" glyph-name="live-copy-paste" d="M94.208-60.928c-49.152 0-89.088 40.96-90.112 90.112v600.064c0 49.152 40.96 89.088 90.112 90.112h154.624v153.6c0 49.152 39.936 89.088 90.112 90.112h600.064c49.152 0 89.088-39.936 90.112-90.112v-600.064c0-49.152-40.96-89.088-90.112-90.112h-154.624v-154.624c0-49.152-39.936-89.088-90.112-90.112v0h-600.064zM94.208 671.232c-23.552 0-41.984-18.432-41.984-41.984v-600.064c0-23.552 18.432-41.984 41.984-41.984h600.064c23.552 0 41.984 18.432 41.984 41.984v600.064c0 23.552-18.432 41.984-41.984 41.984h-600.064zM337.92 915.968c-23.552 0-41.984-18.432-41.984-41.984v-154.624h398.336c49.152 0 89.088-40.96 90.112-90.112v-398.336h154.624c23.552 0 41.984 18.432 41.984 41.984v600.064c0 23.552-18.432 41.984-41.984 41.984h-601.088z" />
<glyph unicode="&#xe913;" glyph-name="lottie" d="M919.552-64h-815.104c-57.344 0-104.448 47.104-104.448 104.448v815.104c0 57.344 47.104 104.448 104.448 104.448h815.104c57.344 0 104.448-47.104 104.448-104.448v-815.104c0-57.344-47.104-104.448-104.448-104.448zM104.448 908.8c-29.696 0-54.272-23.552-54.272-53.248v-815.104c0-29.696 24.576-53.248 54.272-53.248h815.104c29.696 0 54.272 23.552 54.272 53.248v815.104c0 29.696-24.576 53.248-54.272 53.248h-815.104zM765.952 727.552c11.264-2.048 21.504-7.168 27.648-16.384 7.168-8.192 9.216-19.456 8.192-30.72-1.024-5.12-3.072-10.24-5.12-15.36-3.072-4.096-6.144-8.192-11.264-12.288-4.096-3.072-9.216-5.12-15.36-7.168-5.12-1.024-11.264-2.048-16.384-1.024-51.2 7.168-123.904-65.536-204.8-214.016-100.352-184.32-192.512-272.384-288.768-265.216-11.264 1.024-21.504 6.144-28.672 14.336s-11.264 18.432-10.24 29.696c2.048 22.528 21.504 38.912 45.056 37.888 53.248-4.096 125.952 71.68 207.872 222.208 101.376 186.368 195.584 272.384 291.84 258.048z" />
<glyph unicode="&#xe914;" d="M1022.976 446.976c0-282.77-229.23-512-512-512s-512 229.23-512 512c0 282.77 229.23 512 512 512s512-229.23 512-512z" />
<glyph unicode="&#xe915;" d="M656.384 183.808c-3.072 0-5.12 1.024-8.192 2.048-23.552 12.288-48.128 23.552-71.68 34.816-19.456 10.24-39.936 19.456-59.392 29.696-2.048 1.024-4.096 2.048-6.144 2.048s-4.096 0-6.144-1.024c-21.504-10.24-43.008-21.504-65.536-31.744-22.528-11.264-44.032-21.504-66.56-32.768-3.072-1.024-6.144-2.048-8.192-2.048s-5.12 1.024-8.192 2.048c-21.504 10.24-41.984 20.48-63.488 30.72-24.576 12.288-50.176 24.576-74.752 36.864-2.048 1.024-5.12 3.072-7.168 5.12-1.024 1.024-2.048 2.048-3.072 3.072v171.008c1.024 1.024 2.048 2.048 3.072 3.072 2.048 2.048 5.12 4.096 8.192 6.144 44.032 21.504 88.064 41.984 132.096 63.488 4.096 2.048 6.144 4.096 6.144 9.216 0 9.216 0 68.608 0 76.8v6.144c0 7.168 4.096 12.288 10.24 12.288s10.24-5.12 10.24-12.288c0-4.096 0-8.192 0-13.312 0-7.168 0-64.512 0-71.68 0-2.048 2.048-5.12 4.096-6.144 33.792-17.408 67.584-33.792 102.4-51.2l11.264-5.12c0 0 1.024 0 2.048 0h1.024l1.024 1.024v2.048c0 1.024 0 2.048 0 3.072v36.864c0 30.72 0 61.44 0 92.16 0 3.072-1.024 6.144-5.12 8.192-27.648 13.312-55.296 27.648-82.944 40.96l-28.672 14.336c-1.024 0-1.024 1.024-2.048 1.024l-3.072 1.024v-4.096c0-1.024 0-2.048 0-4.096-1.024-5.12-5.12-9.216-10.24-9.216s-10.24 4.096-10.24 9.216c0 8.192 0 17.408 0 26.624 0 4.096 3.072 7.168 8.192 9.216 31.744 15.36 63.488 31.744 95.232 47.104l30.72 15.36c4.096 2.048 8.192 4.096 11.264 6.144 2.048 1.024 5.12 2.048 7.168 2.048s4.096-1.024 6.144-2.048c46.080-23.552 93.184-46.080 139.264-69.632 5.12-2.048 7.168-6.144 7.168-12.288 0-17.408 0-34.816 0-52.224 0-31.744 0-63.488 0-95.232 0-7.168 2.048-10.24 8.192-13.312 20.48-9.216 40.96-19.456 61.44-29.696 22.528-11.264 45.056-21.504 67.584-31.744 8.192-4.096 11.264-8.192 11.264-17.408 0-54.272 0-107.52 0-156.672 0-7.168-3.072-11.264-9.216-14.336-46.080-22.528-93.184-45.056-139.264-67.584-1.024-4.096-3.072-4.096-6.144-4.096zM522.24 410.112v-16.384c0-39.936 0-78.848 0-118.784 0-2.048 2.048-5.12 5.12-6.144 12.288-6.144 24.576-12.288 37.888-18.432l81.92-39.936v36.864c0 32.768 0 65.536 0 98.304 0 5.12-2.048 7.168-6.144 9.216-27.648 13.312-55.296 26.624-81.92 39.936l-27.648 13.312c-1.024 1.024-3.072 1.024-4.096 2.048l-5.12 3.072v-3.072zM230.4 410.112c0-1.024 0-1.024 0-1.024v-32.768c0-33.792 0-66.56 0-100.352 0-4.096 2.048-6.144 5.12-7.168 15.36-7.168 118.784-58.368 118.784-58.368v3.072c0 1.024 0 1.024 0 1.024v31.744c0 33.792 0 66.56 0 100.352 0 5.12-3.072 6.144-5.12 7.168l-111.616 54.272c-1.024 1.024-2.048 1.024-3.072 2.048l-3.072 1.024-1.024-1.024zM497.664 412.16c-1.024 0-1.024 0-1.024 0l-10.24-5.12c-34.816-17.408-70.656-34.816-105.472-52.224-2.048-1.024-4.096-4.096-4.096-7.168 0-17.408 0-33.792 0-51.2v-84.992l2.048 1.024c1.024 0 1.024 1.024 2.048 1.024l26.624 13.312c29.696 14.336 58.368 28.672 88.064 43.008 4.096 2.048 4.096 5.12 4.096 8.192v129.024c0 1.024 0 2.048 0 3.072v3.072l-2.048-1.024zM788.48 411.136c-1.024 0-2.048-1.024-2.048-1.024l-28.672-13.312c-28.672-14.336-57.344-27.648-86.016-41.984-4.096-2.048-4.096-5.12-4.096-8.192 0-29.696 0-129.024 0-129.024 0-1.024 0-2.048 0-3.072v-3.072l3.072 1.024c1.024 0 2.048 1.024 2.048 1.024l28.672 14.336c28.672 14.336 56.32 27.648 84.992 40.96 4.096 2.048 4.096 4.096 4.096 7.168 0 15.36 0 30.72 0 46.080v90.112l-2.048-1.024zM369.664 488.96c-2.048 0-4.096 0-5.12-1.024-34.816-16.384-69.632-32.768-103.424-49.152l-8.192-4.096c-1.024 0-2.048-1.024-3.072-2.048l-4.096-2.048 21.504-10.24c32.768-15.36 64.512-31.744 96.256-47.104 1.024 0 2.048-1.024 3.072-1.024 2.048 0 4.096 1.024 6.144 1.024 27.648 13.312 54.272 26.624 81.92 39.936l34.816 17.408-22.528 11.264c-31.744 15.36-62.464 30.72-93.184 46.080-2.048 0-3.072 1.024-4.096 1.024zM654.336 487.936c-2.048 0-4.096 0-5.12-1.024-31.744-15.36-63.488-31.744-95.232-47.104l-11.264-6.144c-1.024 0-2.048-1.024-3.072-1.024l-3.072-2.048 2.048-2.048c0 0 1.024-1.024 1.024-1.024l12.288-6.144c33.792-16.384 67.584-32.768 100.352-49.152 1.024 0 2.048-1.024 3.072-1.024 2.048 0 3.072 0 5.12 1.024 11.264 5.12 21.504 10.24 32.768 15.36l82.944 40.96-3.072 2.048c-1.024 0-1.024 1.024-1.024 1.024l-13.312 6.144c-33.792 16.384-67.584 32.768-102.4 48.128 0 2.048-1.024 2.048-2.048 2.048zM638.976 648.704c-1.024 0-1.024 0-2.048-1.024l-25.6-13.312c-28.672-14.336-57.344-28.672-84.992-43.008-4.096-2.048-4.096-4.096-4.096-8.192 0-30.72 0-61.44 0-93.184v-35.84c0-1.024 0-2.048 0-3.072v-3.072l3.072 1.024c1.024 0 1.024 0 2.048 1.024l28.672 14.336c27.648 14.336 55.296 27.648 82.944 41.984 4.096 2.048 4.096 5.12 4.096 8.192 0 25.6 0 134.144 0 134.144v2.048l-4.096-2.048zM510.976 725.504c-1.024 0-3.072 0-4.096-1.024-4.096-2.048-9.216-4.096-13.312-6.144l-100.352-50.176 2.048-2.048c0 0 1.024-1.024 1.024-1.024l11.264-6.144c32.768-16.384 65.536-32.768 98.304-49.152 1.024 0 2.048-1.024 3.072-1.024 2.048 0 3.072 0 5.12 1.024 35.84 17.408 71.68 35.84 107.52 53.248 1.024 0 1.024 1.024 2.048 2.048l3.072 2.048-19.456 9.216c-31.744 16.384-63.488 31.744-95.232 47.104 2.048 2.048 1.024 2.048-1.024 2.048z" />
<glyph unicode="&#xe916;" glyph-name="one-page-scroll" d="M906.24 522.752c54.272 10.24 100.352-36.864 90.112-90.112-6.144-29.696-30.72-54.272-60.416-60.416-54.272-10.24-100.352 36.864-90.112 90.112 5.12 29.696 29.696 54.272 60.416 60.416zM920.576 414.208c18.432 0 32.768 14.336 32.768 32.768s-14.336 32.768-32.768 32.768-32.768-14.336-32.768-32.768 15.36-32.768 32.768-32.768zM820.224 598.528v0c8.192-8.192 22.528-8.192 30.72 0l68.608 68.608 65.536-65.536c8.192-8.192 22.528-8.192 30.72 0v0c8.192 8.192 8.192 22.528 0 30.72l-79.872 79.872c-9.216 9.216-24.576 9.216-33.792 0l-82.944-82.944c-8.192-8.192-8.192-22.528 1.024-30.72zM820.224 266.752l82.944-82.944c9.216-9.216 23.552-9.216 32.768 0l80.896 80.896c8.192 8.192 8.192 22.528 0 30.72v0c-8.192 8.192-22.528 8.192-30.72 0l-66.56-66.56-68.608 68.608c-8.192 8.192-22.528 8.192-30.72 0v0c-9.216-8.192-9.216-22.528 0-30.72zM727.040 821.76h-705.536c-12.288 0-21.504-10.24-21.504-21.504v-704.512c0-12.288 10.24-21.504 21.504-21.504h705.536c12.288 0 21.504 10.24 21.504 21.504v704.512c0 12.288-10.24 21.504-21.504 21.504v0zM704.512 777.728v-104.448h-660.48v104.448h660.48zM44.032 118.272v510.976h660.48v-510.976h-660.48zM618.496 449.024h-152.576c-12.288 0-21.504-10.24-21.504-21.504s10.24-21.504 21.504-21.504h152.576c12.288 0 21.504 10.24 21.504 21.504s-9.216 21.504-21.504 21.504zM618.496 554.496h-152.576c-12.288 0-21.504-10.24-21.504-21.504 0-12.288 10.24-21.504 21.504-21.504h152.576c12.288 0 21.504 10.24 21.504 21.504s-9.216 21.504-21.504 21.504zM618.496 342.528h-152.576c-12.288 0-21.504-10.24-21.504-21.504s10.24-21.504 21.504-21.504h152.576c12.288 0 21.504 10.24 21.504 21.504s-9.216 21.504-21.504 21.504zM618.496 237.056h-488.448c-12.288 0-21.504-10.24-21.504-21.504s10.24-21.504 21.504-21.504h488.448c12.288 0 21.504 10.24 21.504 21.504s-9.216 21.504-21.504 21.504v0zM130.048 290.304h244.736c12.288 0 21.504 10.24 21.504 21.504v221.184c0 12.288-10.24 21.504-21.504 21.504h-244.736c-12.288 0-21.504-10.24-21.504-21.504v-220.16c-1.024-12.288 9.216-22.528 21.504-22.528zM151.552 510.464h200.704v-176.128h-200.704v176.128zM651.264 702.976c12.288 0 23.552 10.24 22.528 22.528s-10.24 22.528-22.528 22.528c-12.288 0-23.552-10.24-22.528-22.528 0-11.264 9.216-22.528 22.528-22.528zM568.32 702.976c12.288 0 23.552 10.24 22.528 22.528s-10.24 22.528-22.528 22.528c-12.288 0-23.552-10.24-22.528-22.528 0-11.264 10.24-22.528 22.528-22.528z" />
<glyph unicode="&#xe917;" glyph-name="paralax" d="M246.784 627.2c-6.144 0-12.288 4.096-14.336 9.216-4.096 8.192 0 17.408 8.192 21.504l265.216 122.88c2.048 1.024 4.096 1.024 7.168 1.024s5.12 0 7.168-1.024l107.52-50.176c4.096-2.048 7.168-5.12 8.192-9.216s1.024-8.192-1.024-12.288c-3.072-6.144-8.192-9.216-14.336-9.216-2.048 0-5.12 1.024-7.168 1.024l-101.376 48.128-258.048-119.808c-2.048-1.024-4.096-2.048-7.168-2.048zM512 5.632c-2.048 0-5.12 1.024-7.168 1.024l-495.616 231.424c-5.12 2.048-9.216 8.192-9.216 14.336s4.096 12.288 9.216 14.336l178.176 82.944-178.176 82.944c-5.12 3.072-9.216 9.216-9.216 15.36s4.096 12.288 9.216 14.336l178.176 82.944-178.176 83.968c-5.12 2.048-9.216 8.192-9.216 14.336s4.096 12.288 9.216 14.336l495.616 230.4c2.048 1.024 4.096 1.024 7.168 1.024s5.12 0 7.168-1.024l495.616-230.4c6.144-3.072 9.216-8.192 9.216-14.336s-4.096-12.288-9.216-14.336l-178.176-82.944 178.176-82.944c6.144-3.072 9.216-8.192 9.216-14.336s-4.096-12.288-9.216-14.336l-178.176-82.944 178.176-82.944c6.144-3.072 9.216-8.192 9.216-14.336s-4.096-12.288-9.216-14.336l-495.616-232.448c-2.048-1.024-5.12-2.048-7.168-2.048zM55.296 252.416l456.704-211.968 456.704 211.968-172.032 79.872-277.504-129.024c-2.048-1.024-4.096-1.024-7.168-1.024-2.048 0-5.12 1.024-7.168 1.024l-278.528 129.024-171.008-79.872zM55.296 448l456.704-211.968 456.704 211.968-172.032 79.872-277.504-129.024c-2.048-1.024-5.12-2.048-7.168-2.048s-5.12 1.024-7.168 1.024l-278.528 130.048-171.008-79.872zM55.296 643.584l456.704-211.968 456.704 211.968-456.704 211.968-456.704-211.968z" />
<glyph unicode="&#xe918;" glyph-name="pop-up" d="M381.952 675.328h-79.872c-14.336 0-26.624-12.288-26.624-26.624v-79.872c0-14.336 12.288-26.624 26.624-26.624h79.872c14.336 0 26.624 12.288 26.624 26.624v79.872c0 15.36-11.264 26.624-26.624 26.624zM384 568.832c0-1.024-1.024-2.048-2.048-2.048h-79.872c-1.024 0-2.048 1.024-2.048 2.048v79.872c0 1.024 1.024 2.048 2.048 2.048h79.872c1.024 0 2.048-1.024 2.048-2.048v-79.872zM551.936 675.328h-80.896c-14.336 0-26.624-12.288-26.624-26.624v-79.872c0-14.336 12.288-26.624 26.624-26.624h80.896c14.336 0 26.624 12.288 26.624 26.624v79.872c1.024 15.36-11.264 26.624-26.624 26.624zM553.984 568.832c0-1.024-1.024-2.048-2.048-2.048h-80.896c-1.024 0-2.048 1.024-2.048 2.048v79.872c0 1.024 1.024 2.048 2.048 2.048h80.896c1.024 0 2.048-1.024 2.048-2.048v-79.872zM721.92 675.328h-80.896c-14.336 0-26.624-12.288-26.624-26.624v-79.872c0-14.336 12.288-26.624 26.624-26.624h80.896c14.336 0 26.624 12.288 26.624 26.624v79.872c1.024 15.36-11.264 26.624-26.624 26.624zM723.968 568.832c0-1.024-1.024-2.048-2.048-2.048h-80.896c-1.024 0-2.048 1.024-2.048 2.048v79.872c0 1.024 1.024 2.048 2.048 2.048h80.896c1.024 0 2.048-1.024 2.048-2.048v-79.872zM396.288 479.744h-108.544c-7.168 0-12.288 5.12-12.288 12.288s5.12 12.288 12.288 12.288h109.568c7.168 0 12.288-5.12 12.288-12.288-1.024-6.144-6.144-12.288-13.312-12.288zM568.32 479.744h-109.568c-7.168 0-12.288 5.12-12.288 12.288s5.12 12.288 12.288 12.288h109.568c7.168 0 12.288-5.12 12.288-12.288 0-6.144-6.144-12.288-12.288-12.288zM736.256 479.744h-103.424c-7.168 0-12.288 5.12-12.288 12.288s5.12 12.288 12.288 12.288h103.424c7.168 0 12.288-5.12 12.288-12.288 1.024-6.144-5.12-12.288-12.288-12.288zM661.504 784.896c8.192 0 15.36 7.168 15.36 15.36s-7.168 15.36-15.36 15.36c-8.192 0-15.36-7.168-15.36-15.36s7.168-15.36 15.36-15.36zM726.016 784.896c8.192 0 15.36 7.168 15.36 15.36s-7.168 15.36-15.36 15.36c-8.192 0-15.36-7.168-15.36-15.36s7.168-15.36 15.36-15.36zM568.32 800.256c0 8.192-7.168 15.36-15.36 15.36h-269.312c-8.192 0-15.36-7.168-15.36-15.36s7.168-15.36 15.36-15.36h269.312c8.192 0 15.36 7.168 15.36 15.36zM984.064 172.544h-26.624v98.304c0 8.192-7.168 15.36-15.36 15.36s-15.36-7.168-15.36-15.36v-98.304h-830.464v438.272c0 20.48 16.384 36.864 36.864 36.864h71.68v-40.96h-38.912c-16.384 0-28.672-13.312-28.672-28.672v-336.896c0-15.36 12.288-28.672 28.672-28.672h693.248c16.384 0 28.672 13.312 28.672 28.672v337.92c0 15.36-13.312 28.672-28.672 28.672h-39.936v40.96h71.68c20.48 0 36.864-16.384 36.864-36.864v-273.408c0-8.192 7.168-15.36 15.36-15.36s15.36 7.168 15.36 15.36v272.384c0 36.864-29.696 66.56-66.56 66.56h-71.68v165.888c0 16.384-13.312 30.72-30.72 30.72h-553.984c-17.408 0-30.72-14.336-30.72-30.72v-164.864h-71.68c-36.864 0-66.56-29.696-66.56-66.56v-438.272h-26.624c-22.528 0-39.936-18.432-39.936-39.936 0-60.416 49.152-110.592 110.592-110.592h802.816c60.416 0 110.592 49.152 110.592 110.592 0 20.48-17.408 38.912-39.936 38.912zM234.496 722.432h47.104c8.192 0 15.36 6.144 15.36 14.336s-7.168 15.36-15.36 15.36h-47.104v90.112c0 0 1.024 1.024 1.024 1.024h552.96c1.024 0 1.024-1.024 1.024-1.024v-90.112h-437.248c-8.192 0-15.36-6.144-15.36-15.36 0-8.192 6.144-14.336 15.36-14.336h438.272v-292.864h-556.032v292.864zM236.544 397.824h550.912c17.408 0 31.744 13.312 32.768 29.696v149.504h37.888v-333.824h-691.2v333.824h37.888v-147.456c0-17.408 14.336-31.744 31.744-31.744zM367.616 142.848h288.768v-15.36c0-8.192-7.168-14.336-15.36-14.336h-258.048c-8.192 0-15.36 6.144-15.36 14.336v15.36zM913.408 51.712h-802.816c-44.032 0-79.872 35.84-79.872 79.872 0 6.144 4.096 10.24 10.24 10.24h296.96v-15.36c0-24.576 20.48-45.056 45.056-45.056h259.072c24.576 0 45.056 20.48 45.056 45.056v15.36h297.984c5.12 0 10.24-4.096 10.24-10.24-1.024-43.008-37.888-79.872-81.92-79.872z" />
<glyph unicode="&#xe919;" glyph-name="sticky-section" d="M1027.072 591.36c-2.048 31.744-10.24 61.44-24.576 89.088-56.32 108.544-141.312 188.416-246.784 248.832-33.792 19.456-70.656 28.672-108.544 31.744-14.336 1.024-23.552-3.072-33.792-14.336-49.152-56.32-72.704-120.832-60.416-195.584 2.048-9.216-1.024-16.384-7.168-22.528-45.056-45.056-90.112-91.136-135.168-136.192-6.144-6.144-11.264-8.192-20.48-4.096-30.72 16.384-64.512 22.528-98.304 20.48-57.344 1.024-106.496-17.408-150.528-53.248-24.576-20.48-34.816-46.080-32.768-76.8 2.048-18.432 7.168-34.816 14.336-51.2 23.552-51.2 59.392-94.208 95.232-136.192 8.192-10.24 9.216-15.36 1.024-26.624-66.56-93.184-133.12-186.368-200.704-279.552-3.072-5.12-7.168-9.216-10.24-14.336-6.144-9.216-6.144-19.456 2.048-26.624 9.216-9.216 19.456-8.192 28.672-2.048 5.12 3.072 9.216 7.168 14.336 10.24 83.968 62.464 167.936 124.928 252.928 187.392 12.288 9.216 25.6 25.6 36.864 24.576 13.312-1.024 25.6-17.408 37.888-26.624 14.336-10.24 28.672-21.504 44.032-31.744 32.768-21.504 66.56-41.984 106.496-50.176 38.912-8.192 71.68-1.024 97.28 31.744 58.368 75.776 63.488 156.672 29.696 242.688-4.096 10.24-5.12 16.384 4.096 25.6 45.056 44.032 89.088 88.064 132.096 133.12 7.168 7.168 14.336 10.24 24.576 8.192 76.8-10.24 140.288 14.336 196.608 64.512 8.192 9.216 12.288 17.408 11.264 29.696zM139.264 70.144c-1.024 2.048-2.048 3.072-4.096 5.12 40.96 56.32 81.92 112.64 121.856 167.936 16.384-16.384 32.768-32.768 50.176-49.152-54.272-39.936-110.592-81.92-167.936-123.904zM592.896 112.128c-11.264-14.336-26.624-19.456-45.056-16.384-19.456 3.072-37.888 9.216-54.272 18.432-132.096 79.872-241.664 183.296-321.536 313.344-37.888 61.44-24.576 93.184 41.984 122.88 25.6 11.264 52.224 16.384 79.872 16.384 23.552 1.024 45.056-4.096 66.56-11.264 9.216-3.072 15.36-8.192 14.336-20.48-3.072-24.576 6.144-47.104 19.456-67.584 34.816-56.32 81.92-100.352 139.264-134.144 21.504-12.288 44.032-20.48 68.608-17.408 10.24 1.024 14.336-3.072 17.408-11.264 28.672-69.632 18.432-133.12-26.624-192.512zM608.256 364.032c-5.12-6.144-12.288-7.168-20.48-5.12s-17.408 4.096-24.576 8.192c-58.368 30.72-105.472 74.752-137.216 132.096-16.384 28.672-14.336 34.816 8.192 57.344 44.032 45.056 89.088 90.112 133.12 135.168 77.824-115.712 77.824-115.712 186.368-179.2-48.128-50.176-96.256-99.328-145.408-148.48zM770.048 553.472c-88.064 40.96-153.6 103.424-174.080 202.752-9.216 47.104 0 90.112 26.624 134.144 63.488-155.648 173.056-262.144 332.8-320.512-61.44-37.888-122.88-45.056-185.344-16.384zM664.576 913.92c105.472-4.096 308.224-198.656 315.392-304.128-130.048 25.6-284.672 172.032-315.392 304.128z" />
<glyph unicode="&#xe91a;" glyph-name="swatches" d="M808.96 555.52c6.144 25.6 10.24 51.2 10.24 77.824 0 61.44-18.432 120.832-52.224 172.032-4.096 5.12-10.24 9.216-16.384 9.216-4.096 0-8.192-1.024-11.264-3.072-4.096-3.072-7.168-7.168-8.192-13.312-1.024-5.12 0-10.24 3.072-15.36 29.696-44.032 46.080-96.256 46.080-149.504 0-23.552-3.072-46.080-9.216-67.584-17.408 3.072-35.84 5.12-53.248 5.12-75.776 0-148.48-27.648-204.8-77.824-56.32 50.176-129.024 77.824-204.8 77.824-18.432 0-35.84-2.048-53.248-5.12-6.144 22.528-9.216 45.056-9.216 67.584-1.024 147.456 118.784 267.264 266.24 267.264 71.68 0 138.24-27.648 188.416-77.824 4.096-4.096 9.216-6.144 14.336-6.144s10.24 2.048 14.336 6.144c8.192 8.192 8.192 20.48 0 28.672-57.344 57.344-135.168 89.088-217.088 89.088-169.984 0-307.2-138.24-307.2-307.2 0-26.624 3.072-52.224 10.24-77.824-126.976-39.936-215.040-159.744-215.040-292.864 0-169.984 138.24-307.2 307.2-307.2 19.456 0 38.912 2.048 58.368 5.12 11.264 2.048 18.432 12.288 16.384 23.552-2.048 9.216-10.24 16.384-19.456 16.384-1.024 0-2.048 0-4.096 0-16.384-3.072-33.792-5.12-51.2-5.12-147.456 0-267.264 119.808-267.264 267.264 0 115.712 76.8 220.16 187.392 254.976 34.816-83.968 105.472-149.504 191.488-177.152-6.144-25.6-10.24-51.2-10.24-77.824 0-73.728 26.624-144.384 74.752-200.704-21.504-19.456-46.080-34.816-72.704-45.056-5.12-2.048-9.216-6.144-11.264-11.264s-2.048-10.24 0-15.36c3.072-7.168 10.24-12.288 18.432-12.288 3.072 0 5.12 1.024 8.192 2.048 31.744 13.312 59.392 31.744 84.992 54.272 56.32-50.176 129.024-77.824 204.8-77.824 169.984 0 307.2 138.24 307.2 307.2 1.024 132.096-87.040 251.904-214.016 291.84zM307.2 529.92c65.536 0 128-23.552 176.128-66.56-21.504-25.6-38.912-53.248-52.224-84.992-72.704 23.552-134.144 77.824-164.864 148.48 14.336 2.048 27.648 3.072 40.96 3.072zM512 366.080c-13.312 0-26.624 1.024-39.936 3.072 10.24 23.552 23.552 45.056 39.936 64.512 16.384-19.456 29.696-40.96 39.936-64.512-13.312-2.048-26.624-3.072-39.936-3.072zM458.752 330.24c17.408-3.072 35.84-5.12 53.248-5.12s35.84 2.048 53.248 5.12c6.144-22.528 9.216-45.056 9.216-67.584 0-62.464-22.528-123.904-62.464-172.032-40.96 48.128-62.464 108.544-62.464 172.032 0 23.552 3.072 46.080 9.216 67.584zM716.8 529.92c13.312 0 26.624-1.024 39.936-3.072-30.72-70.656-92.16-124.928-164.864-148.48-12.288 30.72-29.696 59.392-52.224 84.992 49.152 43.008 111.616 66.56 177.152 66.56zM614.4 262.656c0 26.624-3.072 52.224-10.24 77.824 86.016 27.648 157.696 93.184 191.488 177.152 110.592-34.816 187.392-139.264 187.392-254.976 0-147.456-119.808-267.264-267.264-267.264-64.512 0-126.976 23.552-176.128 66.56 49.152 56.32 74.752 126.976 74.752 200.704z" />
<glyph unicode="&#xe91b;" glyph-name="header-footer" d="M124.928 749.056h63.488v-63.488h-63.488v63.488zM124.928 685.568l64.512 37.888v-1.024l-62.464-36.864h-2.048zM251.904 749.056h63.488v-63.488h-63.488v63.488zM251.904 685.568l63.488 37.888v-1.024l-62.464-36.864h-1.024zM871.424 694.784h-467.968c-12.288 0-22.528 10.24-22.528 22.528s10.24 22.528 22.528 22.528h467.968c12.288 0 22.528-10.24 22.528-22.528s-9.216-22.528-22.528-22.528zM962.56 565.76h-901.12c-33.792 0-61.44 27.648-61.44 61.44v157.696c0 33.792 27.648 61.44 61.44 61.44h901.12c33.792 0 61.44-27.648 61.44-61.44v-157.696c0-33.792-27.648-61.44-61.44-61.44zM61.44 800.256c-8.192 0-15.36-7.168-15.36-15.36v-157.696c0-8.192 7.168-15.36 15.36-15.36h901.12c8.192 0 15.36 7.168 15.36 15.36v157.696c0 8.192-7.168 15.36-15.36 15.36h-901.12zM163.84 330.24h-35.84c-8.192 0-14.336 6.144-14.336 14.336v35.84c0 8.192 6.144 14.336 14.336 14.336h35.84c8.192 0 14.336-6.144 14.336-14.336v-35.84c0-8.192-7.168-14.336-14.336-14.336zM113.664 330.24l64.512 37.888v-1.024l-62.464-36.864h-2.048zM962.56 49.664h-901.12c-33.792 0-61.44 27.648-61.44 61.44v329.728c0 33.792 27.648 61.44 61.44 61.44h901.12c33.792 0 61.44-27.648 61.44-61.44v-329.728c0-33.792-27.648-61.44-61.44-61.44zM61.44 456.192c-8.192 0-15.36-7.168-15.36-15.36v-329.728c0-8.192 7.168-15.36 15.36-15.36h901.12c8.192 0 15.36 7.168 15.36 15.36v329.728c0 8.192-7.168 15.36-15.36 15.36h-901.12zM307.2 253.44h-180.224c-12.288 0-22.528 10.24-22.528 22.528s10.24 22.528 22.528 22.528h180.224c12.288 0 22.528-10.24 22.528-22.528s-9.216-22.528-22.528-22.528zM307.2 176.64h-180.224c-12.288 0-22.528 10.24-22.528 22.528s10.24 22.528 22.528 22.528h180.224c12.288 0 22.528-10.24 22.528-22.528s-9.216-22.528-22.528-22.528zM470.016 330.24h-35.84c-8.192 0-14.336 6.144-14.336 14.336v35.84c0 8.192 6.144 14.336 14.336 14.336h35.84c8.192 0 14.336-6.144 14.336-14.336v-35.84c-1.024-8.192-7.168-14.336-14.336-14.336zM480.256 330.24l3.072 2.048v-1.024l-1.024-1.024zM478.208 330.24l5.12 3.072v-1.024l-3.072-2.048zM476.16 330.24l7.168 4.096v-1.024l-5.12-3.072zM475.136 330.24l8.192 5.12v-1.024l-7.168-4.096zM473.088 330.24l10.24 6.144v-1.024l-8.192-5.12zM471.040 330.24l12.288 7.168v-1.024l-10.24-6.144zM468.992 330.24l14.336 8.192v-1.024l-12.288-7.168zM466.944 330.24l16.384 9.216v-1.024l-14.336-8.192zM465.92 330.24l17.408 10.24v-1.024l-16.384-9.216zM463.872 330.24l19.456 11.264v-1.024l-17.408-10.24zM461.824 330.24l21.504 12.288v-1.024l-19.456-11.264zM459.776 330.24l23.552 13.312v-1.024l-21.504-12.288zM457.728 330.24l25.6 15.36v-2.048l-23.552-13.312zM456.704 330.24l26.624 16.384v-1.024l-25.6-15.36zM454.656 330.24l28.672 17.408v-1.024l-26.624-16.384zM452.608 330.24l30.72 18.432v-1.024l-28.672-17.408zM450.56 330.24l32.768 19.456v-1.024l-30.72-18.432zM449.536 330.24l33.792 20.48v-1.024l-32.768-19.456zM447.488 330.24l35.84 21.504v-1.024l-33.792-20.48zM445.44 330.24l37.888 22.528v-1.024l-35.84-21.504zM443.392 330.24l39.936 23.552v-1.024l-37.888-22.528zM441.344 330.24l41.984 24.576v-1.024l-39.936-23.552zM440.32 330.24l43.008 25.6v-1.024l-41.984-24.576zM438.272 330.24l45.056 26.624v-1.024l-43.008-25.6zM436.224 330.24l47.104 27.648v-1.024l-45.056-26.624zM434.176 330.24l49.152 29.696v-2.048l-47.104-27.648zM432.128 330.24l51.2 30.72v-1.024l-49.152-29.696zM431.104 330.24l52.224 31.744v-1.024l-51.2-30.72zM429.056 330.24l54.272 32.768v-1.024l-52.224-31.744zM427.008 330.24l56.32 33.792v-1.024l-54.272-32.768zM424.96 330.24l58.368 34.816v-1.024l-56.32-33.792zM422.912 330.24l60.416 35.84v-1.024l-58.368-34.816zM421.888 330.24l61.44 36.864v-1.024l-60.416-35.84zM419.84 330.24l63.488 37.888v-1.024l-61.44-36.864h-2.048zM419.84 331.264l63.488 37.888v-1.024l-63.488-37.888zM419.84 332.288l63.488 37.888v-1.024l-63.488-37.888zM419.84 333.312l63.488 37.888v-1.024l-63.488-37.888zM419.84 334.336l63.488 37.888v-1.024l-63.488-37.888zM419.84 335.36l63.488 37.888v-1.024l-63.488-37.888zM419.84 336.384l63.488 38.912v-2.048l-63.488-37.888zM419.84 337.408l63.488 38.912v-1.024l-63.488-38.912zM419.84 338.432l63.488 38.912v-1.024l-63.488-38.912zM419.84 339.456l63.488 38.912v-1.024l-63.488-38.912zM419.84 340.48l63.488 38.912v-1.024l-63.488-38.912zM419.84 341.504l63.488 38.912v-1.024l-63.488-38.912zM419.84 343.552l63.488 37.888v-1.024l-63.488-38.912zM419.84 344.576l63.488 37.888v-1.024l-63.488-37.888zM419.84 345.6l63.488 37.888v-1.024l-63.488-37.888zM419.84 346.624l63.488 37.888v-1.024l-63.488-37.888zM419.84 347.648l63.488 37.888v-1.024l-63.488-37.888zM419.84 348.672l63.488 37.888v-1.024l-63.488-37.888zM419.84 349.696l63.488 37.888v-1.024l-63.488-37.888zM419.84 350.72l63.488 38.912v-2.048l-63.488-37.888zM419.84 351.744l63.488 38.912v-1.024l-63.488-38.912zM419.84 352.768l63.488 38.912v-1.024l-63.488-38.912zM419.84 353.792l63.488 38.912v-1.024l-63.488-38.912zM419.84 354.816l63.488 38.912v-1.024l-63.488-38.912zM419.84 355.84l62.464 37.888h1.024l-63.488-38.912zM419.84 356.864l60.416 36.864h2.048l-62.464-37.888zM419.84 358.912l58.368 34.816h2.048l-60.416-36.864zM419.84 359.936l57.344 33.792h1.024l-58.368-34.816zM419.84 360.96l55.296 32.768h2.048l-57.344-33.792zM419.84 361.984l53.248 31.744h2.048l-55.296-32.768zM419.84 363.008l51.2 30.72h2.048l-53.248-31.744zM419.84 364.032l49.152 29.696h2.048l-51.2-30.72zM419.84 365.056l48.128 28.672h1.024l-49.152-29.696zM419.84 366.080l46.080 27.648h2.048l-48.128-28.672zM419.84 367.104l44.032 26.624h2.048l-46.080-27.648zM419.84 368.128l41.984 25.6h2.048l-44.032-26.624zM419.84 369.152l39.936 24.576h2.048l-41.984-25.6zM419.84 370.176l38.912 23.552h1.024l-39.936-24.576zM419.84 371.2l36.864 22.528h2.048l-38.912-23.552zM419.84 373.248l34.816 20.48h2.048l-36.864-22.528zM419.84 374.272l32.768 19.456h2.048l-34.816-20.48zM419.84 375.296l30.72 18.432h2.048l-32.768-19.456zM419.84 376.32l29.696 17.408h1.024l-30.72-18.432zM419.84 377.344l27.648 16.384h2.048l-29.696-17.408zM419.84 378.368l25.6 15.36h2.048l-27.648-16.384zM419.84 379.392l23.552 14.336h2.048l-25.6-15.36zM419.84 380.416l22.528 13.312h1.024l-23.552-14.336zM419.84 381.44l20.48 12.288h2.048l-22.528-13.312zM419.84 382.464l18.432 11.264h2.048l-20.48-12.288zM419.84 383.488l16.384 10.24h2.048l-18.432-11.264zM419.84 384.512l14.336 9.216h2.048l-16.384-10.24zM419.84 385.536l13.312 8.192h1.024l-14.336-9.216zM419.84 386.56l11.264 7.168h2.048l-13.312-8.192zM419.84 388.608l9.216 5.12h2.048l-11.264-7.168zM419.84 389.632l7.168 4.096h2.048l-9.216-5.12zM419.84 390.656l5.12 3.072h2.048l-7.168-4.096zM419.84 391.68l4.096 2.048h1.024l-5.12-3.072zM419.84 392.704l2.048 1.024h2.048l-4.096-2.048zM603.136 253.44h-169.984c-12.288 0-22.528 10.24-22.528 22.528s10.24 22.528 22.528 22.528h169.984c12.288 0 22.528-10.24 22.528-22.528s-10.24-22.528-22.528-22.528zM603.136 176.64h-169.984c-12.288 0-22.528 10.24-22.528 22.528s10.24 22.528 22.528 22.528h169.984c12.288 0 22.528-10.24 22.528-22.528s-10.24-22.528-22.528-22.528zM761.856 330.24h-35.84c-8.192 0-14.336 6.144-14.336 14.336v35.84c0 8.192 6.144 14.336 14.336 14.336h35.84c8.192 0 14.336-6.144 14.336-14.336v-35.84c-1.024-8.192-7.168-14.336-14.336-14.336zM772.096 330.24l3.072 2.048v-1.024l-1.024-1.024zM770.048 330.24l5.12 3.072v-1.024l-3.072-2.048zM768 330.24l7.168 4.096v-1.024l-5.12-3.072zM765.952 330.24l9.216 5.12v-1.024l-7.168-4.096zM764.928 330.24l10.24 6.144v-1.024l-9.216-5.12zM762.88 330.24l12.288 7.168v-1.024l-10.24-6.144zM760.832 330.24l14.336 8.192v-1.024l-12.288-7.168zM758.784 330.24l16.384 9.216v-1.024l-14.336-8.192zM757.76 330.24l17.408 10.24v-1.024l-16.384-9.216zM755.712 330.24l19.456 11.264v-1.024l-17.408-10.24zM753.664 330.24l21.504 12.288v-1.024l-19.456-11.264zM751.616 330.24l23.552 13.312v-1.024l-21.504-12.288zM749.568 330.24l25.6 15.36v-2.048l-23.552-13.312zM748.544 330.24l26.624 16.384v-1.024l-25.6-15.36zM746.496 330.24l28.672 17.408v-1.024l-26.624-16.384zM744.448 330.24l30.72 18.432v-1.024l-28.672-17.408zM742.4 330.24l32.768 19.456v-1.024l-30.72-18.432zM740.352 330.24l34.816 20.48v-1.024l-32.768-19.456zM739.328 330.24l35.84 21.504v-1.024l-34.816-20.48zM737.28 330.24l37.888 22.528v-1.024l-35.84-21.504zM735.232 330.24l39.936 23.552v-1.024l-37.888-22.528zM733.184 330.24l41.984 24.576v-1.024l-39.936-23.552zM731.136 330.24l44.032 25.6v-1.024l-41.984-24.576zM730.112 330.24l45.056 26.624v-1.024l-44.032-25.6zM728.064 330.24l47.104 27.648v-1.024l-45.056-26.624zM726.016 330.24l49.152 29.696v-2.048l-47.104-27.648zM723.968 330.24l51.2 30.72v-1.024l-49.152-29.696zM722.944 330.24l52.224 31.744v-1.024l-51.2-30.72zM720.896 330.24l54.272 32.768v-1.024l-52.224-31.744zM718.848 330.24l56.32 33.792v-1.024l-54.272-32.768zM716.8 330.24l58.368 34.816v-1.024l-56.32-33.792zM714.752 330.24l60.416 35.84v-1.024l-58.368-34.816zM713.728 330.24l61.44 36.864v-1.024l-60.416-35.84zM711.68 330.24l63.488 37.888v-1.024l-61.44-36.864h-2.048zM711.68 331.264l63.488 37.888v-1.024l-63.488-37.888zM711.68 332.288l63.488 37.888v-1.024l-63.488-37.888zM711.68 333.312l63.488 37.888v-1.024l-63.488-37.888zM711.68 334.336l63.488 37.888v-1.024l-63.488-37.888zM711.68 335.36l63.488 37.888v-1.024l-63.488-37.888zM711.68 336.384l63.488 38.912v-2.048l-63.488-37.888zM711.68 337.408l63.488 38.912v-1.024l-63.488-38.912zM711.68 338.432l63.488 38.912v-1.024l-63.488-38.912zM711.68 339.456l63.488 38.912v-1.024l-63.488-38.912zM711.68 340.48l63.488 38.912v-1.024l-63.488-38.912zM711.68 341.504l63.488 38.912v-1.024l-63.488-38.912zM711.68 343.552l63.488 37.888v-1.024l-63.488-38.912zM711.68 344.576l63.488 37.888v-1.024l-63.488-37.888zM711.68 345.6l63.488 37.888v-1.024l-63.488-37.888zM711.68 346.624l63.488 37.888v-1.024l-63.488-37.888zM711.68 347.648l63.488 37.888v-1.024l-63.488-37.888zM711.68 348.672l63.488 37.888v-1.024l-63.488-37.888zM711.68 349.696l63.488 37.888v-1.024l-63.488-37.888zM711.68 350.72l63.488 38.912v-2.048l-63.488-37.888zM711.68 351.744l63.488 38.912v-1.024l-63.488-38.912zM711.68 352.768l63.488 38.912v-1.024l-63.488-38.912zM711.68 353.792l63.488 38.912v-1.024l-63.488-38.912zM711.68 354.816l63.488 38.912v-1.024l-63.488-38.912zM711.68 355.84l62.464 37.888h1.024l-63.488-38.912zM711.68 356.864l60.416 36.864h2.048l-62.464-37.888zM711.68 358.912l58.368 34.816h2.048l-60.416-36.864zM711.68 359.936l56.32 33.792h2.048l-58.368-34.816zM711.68 360.96l55.296 32.768h1.024l-56.32-33.792zM711.68 361.984l53.248 31.744h2.048l-55.296-32.768zM711.68 363.008l51.2 30.72h2.048l-53.248-31.744zM711.68 364.032l49.152 29.696h2.048l-51.2-30.72zM711.68 365.056l47.104 28.672h2.048l-49.152-29.696zM711.68 366.080l46.080 27.648h1.024l-47.104-28.672zM711.68 367.104l44.032 26.624h2.048l-46.080-27.648zM711.68 368.128l41.984 25.6h2.048l-44.032-26.624zM711.68 369.152l39.936 24.576h2.048l-41.984-25.6zM711.68 370.176l38.912 23.552h1.024l-39.936-24.576zM711.68 371.2l36.864 22.528h2.048l-38.912-23.552zM711.68 373.248l34.816 20.48h2.048l-36.864-22.528zM711.68 374.272l32.768 19.456h2.048l-34.816-20.48zM711.68 375.296l30.72 18.432h2.048l-32.768-19.456zM711.68 376.32l29.696 17.408h1.024l-30.72-18.432zM711.68 377.344l27.648 16.384h2.048l-29.696-17.408zM711.68 378.368l25.6 15.36h2.048l-27.648-16.384zM711.68 379.392l23.552 14.336h2.048l-25.6-15.36zM711.68 380.416l21.504 13.312h2.048l-23.552-14.336zM711.68 381.44l20.48 12.288h1.024l-21.504-13.312zM711.68 382.464l18.432 11.264h2.048l-20.48-12.288zM711.68 383.488l16.384 10.24h2.048l-18.432-11.264zM711.68 384.512l14.336 9.216h2.048l-16.384-10.24zM711.68 385.536l13.312 8.192h1.024l-14.336-9.216zM711.68 386.56l11.264 7.168h2.048l-13.312-8.192zM711.68 388.608l9.216 5.12h2.048l-11.264-7.168zM711.68 389.632l7.168 4.096h2.048l-9.216-5.12zM711.68 390.656l5.12 3.072h2.048l-7.168-4.096zM711.68 391.68l4.096 2.048h1.024l-5.12-3.072zM711.68 392.704l2.048 1.024h2.048l-4.096-2.048zM894.976 253.44h-169.984c-12.288 0-22.528 10.24-22.528 22.528s10.24 22.528 22.528 22.528h169.984c12.288 0 22.528-10.24 22.528-22.528s-10.24-22.528-22.528-22.528zM894.976 176.64h-169.984c-12.288 0-22.528 10.24-22.528 22.528s10.24 22.528 22.528 22.528h169.984c12.288 0 22.528-10.24 22.528-22.528s-10.24-22.528-22.528-22.528z" />
</font>
</defs>
</svg>
